陈宇华 夏雪 -《张国荣钢琴精选集》(Remember Leslie)[APE]

陈宇华 夏雪 -《张国荣钢琴精选集》(Remember Leslie)[APE]
  • 片  名  陈宇华 夏雪 -《张国荣钢琴精选集》(Remember Leslie)[APE]
  • 简  介  发行时间: 2003年06月24日
  • 类  别  音乐
  • 小  类  其它音乐


  • 详细介绍专辑中文名: 张国荣钢琴精选集专辑英文名: Remember Leslie艺术家: 陈宇华
    夏雪资源格式: APE发行时间: 2003年06月24日地区: 香港简介: 专辑介绍:
    这张专辑是目前能找到的最好版本,哥哥18首经典,钢琴+小提琴重新演绎,换一种方式去聆听哥哥的歌曲,感觉也不错,只是通过钢琴演绎更觉伤感。金碟豪华纪念版,DSD金碟原版压制。这张 张国荣钢琴精选集 就是将哥哥生前留下的以前比较抒情的歌曲用钢琴的形式来演绎,或许并不完美,但是却十分吸引人,至少我是一个被它迷恋的人.让我们留下哥哥的声音,留下对哥哥的哀思吧....
    演奏姓名:陈宇华(钢琴) 夏雪 (小提琴)
    推荐曲目:《依本多情》《谁令你心痴》(东京爱情故事主题曲) 《沉默是金》《由零开始》
    本资源来自互联网,感谢原创的无私分享!仅供试听之用。请勿用于商业目的,否则责任自负!如果喜欢本唱片,请购买正版!
  • 陈宇华 夏雪 -《张国荣钢琴精选集》(Remember Leslie)[APE]_large

精选评论

本人已购 西数 希捷 日立 硬盘各一块,为了广大驴友不惜做好牺牲硬盘准备,请放心下载!


佩服!不过楼主放心,没这么伤硬盘的,我上传GG的APE已达40多G,完全没事。
电驴管理员快审我吧,我要加精!!!!!!!!!!!!!
应该是可以加精的啊… 虽然没有抓轨日志,但是频谱应该也可以的吧… 难道是清晰度不够……?
问题还是蛮多的,比如‘专辑介绍:’没写,最好再写清楚分轨还是整规,曲目标号也没。。。总之小问题多多,楼主要想加精,一定要去看看版规,或者去看看别人是怎么书写的,不要什么都没改就又去申请加精,版主们也挺忙的,就不要无谓增加他们的工作量了,他们没给你加精一定是有原因。已经写得很多了,希望楼主能够在VC感受到分享的快乐吧,就这样~

谢谢!
可以刻碟在CD、VCD、DVD、Blu-rayDVD中播放

方法很简单:1.下载并安装Burrrn刻录软件。 http://www.conft.cn/down/1538.html

2.用“千千静听” 或 “Foobar2000”将APE分轨转成WAVE,记住输出目录。
3.放入空白CD,选择光驱“D:”或“ E:” .......
4.“添加”文件,选择刚才WAVE所在目录文件夹,选定文件

5.单击“Burn”完成!
PERFORMER "張國榮"
TITLE "『 張國榮鋼琴精選集 』"
FILE "CDImage.ape" WAVE
TRACK 01 AUDIO
TITLE "明星"
PERFORMER "陳宇華、夏雪"
INDEX 01 00:00:00
REM GENRE Pop
REM DATE 2003
TRACK 02 AUDIO
TITLE "風繼續吹"
PERFORMER "陳宇華"
INDEX 00 03:57:00
INDEX 01 03:59:00
REM GENRE Pop
REM DATE 2003
TRACK 03 AUDIO
TITLE "為妳鍾情"
PERFORMER "陳宇華"
INDEX 00 08:47:50
INDEX 01 08:49:50
REM GENRE Pop
REM DATE 2003
TRACK 04 AUDIO
TITLE "夜半歌聲"
PERFORMER "陳宇華、夏雪"
INDEX 00 12:16:62
INDEX 01 12:18:62
REM GENRE Pop
REM DATE 2003
TRACK 05 AUDIO
TITLE "當愛已成往事"
PERFORMER "陳宇華"
INDEX 00 15:36:50
INDEX 01 15:38:50
REM GENRE Pop
REM DATE 2003
TRACK 06 AUDIO
TITLE "儂本多情"
PERFORMER "陳宇華、夏雪"
INDEX 00 19:42:05
INDEX 01 19:44:05
REM GENRE Pop
REM DATE 2003
TRACK 07 AUDIO
TITLE "我願意"
PERFORMER "陳宇華"
INDEX 00 23:54:57
INDEX 01 23:56:57
REM GENRE Pop
REM DATE 2003
TRACK 08 AUDIO
TITLE "衹怕不再遇上"
PERFORMER "陳宇華"
INDEX 00 27:46:15
INDEX 01 27:48:15
REM GENRE Pop
REM DATE 2003
TRACK 09 AUDIO
TITLE "誰令妳心痴"
PERFORMER "陳宇華、夏雪"
INDEX 00 31:20:32
INDEX 01 31:22:32
REM GENRE Pop
REM DATE 2003
TRACK 10 AUDIO
TITLE "沉默是金"
PERFORMER "陳宇華"
INDEX 00 36:16:22
INDEX 01 36:18:22
REM GENRE Pop
REM DATE 2003
TRACK 11 AUDIO
TITLE "由零開始"
PERFORMER "陳宇華"
INDEX 00 40:18:05
INDEX 01 40:20:05
REM GENRE Pop
REM DATE 2003
TRACK 12 AUDIO
TITLE "當年情"
PERFORMER "陳宇華"
INDEX 00 44:24:00
INDEX 01 44:26:00
REM GENRE Pop
REM DATE 2003
TRACK 13 AUDIO
TITLE "追"
PERFORMER "陳宇華、夏雪"
INDEX 00 48:50:05
INDEX 01 48:52:05
REM GENRE Pop
REM DATE 2003
TRACK 14 AUDIO
TITLE "一片痴"
PERFORMER "陳宇華"
INDEX 00 53:45:67
INDEX 01 53:47:67
REM GENRE Pop
REM DATE 2003
TRACK 15 AUDIO
TITLE "有誰共鳴"
PERFORMER "陳宇華"
INDEX 00 57:22:30
INDEX 01 57:24:30
REM GENRE Pop
REM DATE 2003
TRACK 16 AUDIO
TITLE "默默向上游"
PERFORMER "陳宇華"
INDEX 00 61:26:52
INDEX 01 61:28:52
REM GENRE Pop
REM DATE 2003
TRACK 17 AUDIO
TITLE "風再起時"
PERFORMER "陳宇華"
INDEX 00 64:20:15
INDEX 01 64:22:15
REM GENRE Pop
REM DATE 2003
TRACK 18 AUDIO
TITLE "明星"
PERFORMER "陳宇華"
INDEX 00 68:48:15
INDEX 01 68:50:15
REM GENRE Pop
REM DATE 2003
请LZ注意资源链接名称的规范性,文件命名:艺术家.-.[专辑名称].专辑.(格式).扩展名
张国荣.-.[张国荣钢琴精选集].专辑.(APE).rar

专辑曲目序号点后留空格。
这个能下载吗???
晕死,怎么下不动??
谢谢分享!

我给你一个地址,用迅雷下


http://www.izmv.com/html/apemusic/huayu/200807/08-877.html

下完 用电驴上传