蔡幸娟 -《秋凉如我心》[APE]

蔡幸娟 -《秋凉如我心》[APE]
  • 片  名  蔡幸娟 -《秋凉如我心》[APE]
  • 简  介  发行时间: 1992年地区: 台湾语言: 普通话
  • 类  别  音乐
  • 小  类  华语音乐


  • 详细介绍专辑中文名: 秋凉如我心歌手: 蔡幸娟资源格式: APE发行时间: 1992年地区: 台湾语言: 普通话简介: 专辑介绍:
      单薄的身子,丰厚的声音,娃娃的身形,成熟的情感,强烈的对比在蔡幸娟身上得到了和谐统一,真可谓星光逼人眼,歌声动人心。出生于台南,号称中国娃娃的蔡幸娟,是一位极富艺术才华的歌坛天后,自1990年获得第一届金曲奖最佳女歌手以来,她不断在华语歌坛掀起持续不断的蔡氏旋风,拥有无以数计的歌迷。而今,她翻唱的经典老歌,更是集多年歌唱技艺之大成,达到了炉火纯青的艺术境界,受到了千千万万蔡迷的狂热欢呼,创造了音乐销售榜上的奇迹。
  • 蔡幸娟 -《秋凉如我心》[APE]_large

精选评论

嗯 看看
谢谢分享,我来了,加速!
贴个cue:

PERFORMER "蔡幸娟"
TITLE "秋凉如我心"
FILE "CDImage.ape" WAVE
TRACK 01 AUDIO
TITLE "秋凉如我心"
PERFORMER "蔡幸娟"
REM DATE 1992
FLAGS DCP
INDEX 01 00:00:00
TRACK 02 AUDIO
TITLE "寂寞难以忍耐"
PERFORMER "蔡幸娟"
REM DATE 1992
FLAGS DCP
INDEX 01 05:08:02
TRACK 03 AUDIO
TITLE "今夜吹什么风"
PERFORMER "蔡幸娟"
REM DATE 1992
FLAGS DCP
INDEX 01 10:14:25
TRACK 04 AUDIO
TITLE "迷路"
PERFORMER "蔡幸娟"
REM DATE 1992
FLAGS DCP
INDEX 01 14:35:00
TRACK 05 AUDIO
TITLE "寂寞心事"
PERFORMER "蔡幸娟"
REM DATE 1992
FLAGS DCP
INDEX 01 18:51:37
TRACK 06 AUDIO
TITLE "爱情其实会说谎"
PERFORMER "蔡幸娟"
REM DATE 1992
FLAGS DCP
INDEX 01 23:18:25
TRACK 07 AUDIO
TITLE "别爱的太多"
PERFORMER "蔡幸娟"
REM DATE 1992
FLAGS DCP
INDEX 01 27:46:37
TRACK 08 AUDIO
TITLE "好想"
PERFORMER "蔡幸娟"
REM DATE 1992
FLAGS DCP
INDEX 01 32:21:30
TRACK 09 AUDIO
TITLE "凉的天凉的心"
PERFORMER "蔡幸娟"
REM DATE 1992
FLAGS DCP
INDEX 01 36:44:25
TRACK 10 AUDIO
TITLE "忘不了你湛蓝色的忧郁"
PERFORMER "蔡幸娟"
REM DATE 1992
FLAGS DCP
INDEX 01 41:02:27