《東方星蓮船 ~ Undefined Fantastic Object.原聲集》[C76][上海アリス幻樂団][東方][同人音樂][OST][TAK]

《東方星蓮船 ~ Undefined Fantastic Object.原聲集》[C76][上海アリス幻樂団][東方][同人音樂][OST][TAK]
  • 片  名  《東方星蓮船 ~ Undefined Fantastic Object.原聲集》[C76][上海アリス幻樂団][東方][同人音樂][OST][TAK]
  • 简  介  发行时间: 2009年8月15日对白语言: 日语文字语言: 日文
  • 类  别  动漫
  • 小  类  动漫周边


  • 详细介绍中文名: 東方星蓮船 ~ Undefined Fantastic Object.原聲集资源格式: TAK版本: [C76][上海アリス幻樂団][東方][同人音樂][OST]发行时间: 2009年8月15日地区: 日本对白语言: 日语文字语言: 日文简介: 【專輯介紹】
    『東方星蓮船 ~ Undefined Fantastic Object.原聲集』■発売日 : 2009/08/15
    ■分类 : 音楽CD
    ■価格 : 無料
    ■収録 : 全18曲
    ■発売元 : 上海アリス幻樂団
    ■ジャンル : 東方Project
    ■年齢制限 : 一般
    ■商品コード :無
    【アーティスト/ キャスト】
    サークル: 上海アリス幻樂団
    「內容」
    土はぬかるみ、氷で覆われた大地から有象無象が目覚める。
      幻想郷を覆った僅かな雪は、この冬目覚めた地霊達を封じ込め、
     さらに妖精達の動きを鈍らせるのに十分だった。その穏やかな眠り
     の季節も終わりを告げようとしている。
      博麗神社。人里離れた辺境の地に建つ神社である。
      博麗神社の巫女、博麗霊夢は森に住む魔法使いから不思議な噂を
     耳にした。
      その噂とは、雲の切れ目に不思議な船が空を飛んでいるのが目撃
     されている、と言うことだった。その船は何かを探すかのように雲
     の間を回遊しているらしい。
      一体、その船の正体は何なのか。目的は何なのか。
     霊夢達の興味は尽きなかった。何となくお宝の匂いがしたので。
               東方星蓮船 ~ Undefined Fantastic Object.
    【收錄曲目】
    TRACK 01 AUDIO
    TITLE 青空の影
    PERFORMER 上海アリス幻樂団
    INDEX 01 00:00:00
    TRACK 02 AUDIO
    TITLE 春の湊に
    PERFORMER 上海アリス幻樂団
    INDEX 01 01:53:00
    TRACK 03 AUDIO
    TITLE 小さな小さな賢将
    PERFORMER 上海アリス幻樂団
    INDEX 01 05:00:00
    TRACK 04 AUDIO
    TITLE 閉ざせし雲の通い路
    PERFORMER 上海アリス幻樂団
    INDEX 01 07:54:00
    TRACK 05 AUDIO
    TITLE 万年置き傘にご注意を
    PERFORMER 上海アリス幻樂団
    INDEX 01 11:36:00
    TRACK 06 AUDIO
    TITLE スカイルーイン
    PERFORMER 上海アリス幻樂団
    INDEX 01 15:58:00
    TRACK 07 AUDIO
    TITLE 時代親父とハイカラ少女
    PERFORMER 上海アリス幻樂団
    INDEX 01 20:18:00
    TRACK 08 AUDIO
    TITLE 幽霊客船の時空を越えた旅
    PERFORMER 上海アリス幻樂団
    INDEX 01 23:48:00
    TRACK 09 AUDIO
    TITLE キャプテン・ムラサ
    PERFORMER 上海アリス幻樂団
    INDEX 01 28:31:00
    TRACK 10 AUDIO
    TITLE 魔界地方都市エソテリア
    PERFORMER 上海アリス幻樂団
    INDEX 01 32:39:00
    TRACK 11 AUDIO
    TITLE 虎柄の毘沙門天
    PERFORMER 上海アリス幻樂団
    INDEX 01 38:13:00
    TRACK 12 AUDIO
    TITLE 法界の火
    PERFORMER 上海アリス幻樂団
    INDEX 01 44:43:00
    TRACK 13 AUDIO
    TITLE 感情の摩天楼 ~ Cosmic Mind
    PERFORMER 上海アリス幻樂団
    INDEX 01 48:03:00
    TRACK 14 AUDIO
    TITLE 夜空のユーフォーロマンス
    PERFORMER 上海アリス幻樂団
    INDEX 01 55:26:00
    TRACK 15 AUDIO
    TITLE 平安のエイリアン
    PERFORMER 上海アリス幻樂団
    INDEX 01 61:28:00
    TRACK 16 AUDIO
    TITLE 妖怪寺
    PERFORMER 上海アリス幻樂団
    INDEX 01 67:33:00
    TRACK 17 AUDIO
    TITLE 空の帰り道 ~ Sky Dream
    PERFORMER 上海アリス幻樂団
    INDEX 01 69:15:00
    TRACK 18 AUDIO
    TITLE プレイヤーズスコア
    PERFORMER 上海アリス幻樂団
    INDEX 01 72:58:00
    【官方網站】

  • 《東方星蓮船 ~ Undefined Fantastic Object.原聲集》[C76][上海アリス幻樂団][東方][同人音樂][OST][TAK]_large

精选评论

好吧,我承认我甘愿被神主虐。可是着如此高产,什么时候会审美疲劳啊。。。
同上。。。。
ps.为什么不会审美疲劳吧。。。

當燈枯時估計會吧

因為經過同人加工后風格已經多元化了
等了一個晚上
還是沒有來源耶
我用的是very cd版的電驢...
请问这个使游戏中提取的,还是正式发售的CD?
同5L
至今还没源...
挂了好几天了...

难道是RP问题...
好听吗?
神主的有疑问吗,那其他做th同人音乐的都该做anime的算了

這資源根據版規 提取物不加精華 所以源非常稀少 要下就要耐心了
原版斗不过翻版!?,,,还好人气上来勒
= =少女下载中.....
累啊~有速度么····

ZUN神是神··