《2010年欧冠决赛 拜仁vs国际米兰》(Champions League Final Bayern Munchen vs Internationale Milano)罗马尼亚语解说[MPG]

《2010年欧冠决赛 拜仁vs国际米兰》(Champions League Final Bayern Munchen vs Internationale Milano)罗马尼亚语解说[MPG]
  • 片  名  《2010年欧冠决赛 拜仁vs国际米兰》(Champions League Final Bayern Munchen vs Internationale Milano)罗马尼亚语解说[MPG]
  • 简  介  发行时间: 2010年05月23日地区: 罗马尼亚语言: 罗马尼亚语
  • 类  别  综艺
  • 小  类  体育节目


  • 详细介绍简介: 引用感谢Sh1n@TvT录制发布下载同时请尽量主动上传,请勿在回帖过程中透露比赛结果和过程!
    比赛双方:国际米兰-拜仁慕尼黑
    比赛时间:2010年5月23日 02:45
    比赛场地:伯纳乌
    解说:罗马尼亚TVR1
    分辨率:720 x 576
    大小:4G
    注:本版本为罗马尼亚语解说,不喜勿下。不含颁奖仪式

    引用Video
    ID : 224 (0xE0)
    Format : MPEG Video
    Format version : Version 2
    Format profile : Main@Main
    Format settings, BVOP : Yes
    Format settings, Matrix : Default
    Duration : 1h 59mn
    Bit rate mode : Variable
    Bit rate : 4 530 Kbps
    Nominal bit rate : 9 400 Kbps
    Width : 720 pixels
    Height : 576 pixels
    Display aspect ratio : 4:3
    Frame rate : 25.000 fps
    Standard : PAL
    Color space : YUV
    Chroma subsampling : 4:2:0
    Bit depth : 8 bits
    Scan type : Interlaced
    Scan order : Top Field First
    Bits/(Pixel*Frame) : 0.437
    Stream size : 3.79 GiB (93%)
    Audio
    ID : 128 (0x80)
    Format : AC-3
    Format/Info : Audio Coding 3
    Mode extension : CM (complete main)
    Duration : 1h 59mn
    Bit rate mode : Constant
    Bit rate : 256 Kbps
    Channel(s) : 2 channels
    Channel positions : Front: L R
    Sampling rate : 48.0 KHz
    Video delay : -80ms
    Stream size : 220 MiB (5%)
    Nu conține și decernarea trofeului din cauza unei erori de înregistrare.
    Fără spoilere!
  • 《2010年欧冠决赛 拜仁vs国际米兰》(Champions League Final Bayern Munchen vs Internationale Milano)罗马尼亚语解说[MPG]_large