梁咏琪 -《成长的短发》[FLAC]

梁咏琪 -《成长的短发》[FLAC]
  • 片  名  梁咏琪 -《成长的短发》[FLAC]
  • 简  介  音乐风格: 流行发行时间: 2006年07月25日地区: 香港语言: 粤语
  • 类  别  音乐
  • 小  类  华语音乐


  • 详细介绍专辑中文名: 成长的短发歌手: 梁咏琪音乐风格: 流行资源格式: FLAC发行时间: 2006年07月25日地区: 香港语言: 粤语简介: 专辑介绍:
    自从与男友郑伊健分手后,梁咏琪(GiGi)从情伤重新站起来,在2006年最新广东大碟《成长的短发》唱出失恋新态度“给自己的情歌”,特别请到周杰伦首次合作作曲,由多年战友陈少琪填词,歌词唱出GiGi的失恋态度,唱出无人爱我就自己爱自己的新女性本色。碟内亦找到如林夕、金培达、陈绮贞等多位音乐人的音乐笔触。
    GiGi最新广东歌“北京之夏”现已派台,由张亚东作曲,陈少琪填词。随碟附送36页上海精美写真及四首MV VCD。
    更换链接为单独文件,原压缩包继续供源至无请求.
    分享团队:91TING.COM音乐社区- Hugo709394
  • 梁咏琪 -《成长的短发》[FLAC]_large

精选评论




PERFORMER "梁詠琪"
TITLE "成長的短髮"
FILE "梁詠琪 - 成長的短髮.flac" WAVE
TRACK 01 AUDIO
TITLE "成長的短髮"
PERFORMER "梁詠琪"
REM GENRE Pop
REM DATE 2006
INDEX 01 00:00:00
TRACK 02 AUDIO
TITLE "給自己的情歌"
PERFORMER "梁詠琪"
REM GENRE Pop
REM DATE 2006
INDEX 01 03:40:15
TRACK 03 AUDIO
TITLE "北京之夏"
PERFORMER "梁詠琪"
REM GENRE Pop
REM DATE 2006
INDEX 01 08:23:42
TRACK 04 AUDIO
TITLE "青檸一片天"
PERFORMER "梁詠琪"
REM GENRE Pop
REM DATE 2006
INDEX 01 12:46:60
TRACK 05 AUDIO
TITLE "煙花三月"
PERFORMER "梁詠琪"
REM GENRE Pop
REM DATE 2006
INDEX 01 16:21:00
TRACK 06 AUDIO
TITLE "等人"
PERFORMER "梁詠琪"
REM GENRE Pop
REM DATE 2006
INDEX 01 19:41:07
TRACK 07 AUDIO
TITLE "一人幾票"
PERFORMER "梁詠琪"
REM GENRE Pop
REM DATE 2006
INDEX 01 23:43:70
TRACK 08 AUDIO
TITLE "請我吃餅干"
PERFORMER "梁詠琪"
REM GENRE Pop
REM DATE 2006
INDEX 01 27:58:00
TRACK 09 AUDIO
TITLE "今年仲夏"
PERFORMER "梁詠琪"
REM GENRE Pop
REM DATE 2006
INDEX 01 32:01:62
TRACK 10 AUDIO
TITLE "給大家的情歌"
PERFORMER "梁詠琪"
REM GENRE Pop
REM DATE 2006
INDEX 01 35:36:00
感谢你的发布,请你在回复栏上 回复 抓轨信息。

這個資源無LOG耶.

麻烦资源名 请 统一改为简体.
PS高手。
我就不下了。。。
楼主的头像够猥琐^-^
因為今早停電,一直沒有及時做源,不好意思.除特殊情況都是24小時不停上傳,2M 網通ADSL
还没到程度能听粤语歌,就不下了。呵呵
请问大家一下,用什么软件工具, 能来判断下来的音乐的质量好坏?不胜感激。
只听过 短发~~~谢谢楼主的分享·!
谢谢,已有这张的wav,这个也下下来听听
最爱GIGI,看着就是舒服!