《遥望星空:哈勃眼中的宇宙》(Stargaze - Hubble's View Of The Universe)

《遥望星空:哈勃眼中的宇宙》(Stargaze - Hubble's View Of The Universe)
  • 片  名  《遥望星空:哈勃眼中的宇宙》(Stargaze - Hubble's View Of The Universe)
  • 简  介  地区: 美国语言: 英语
  • 类  别  综艺
  • 小  类  纪录片


  • 详细介绍中文名: 遥望星空:哈勃眼中的宇宙英文名: Stargaze - Hubble's View Of The Universe地区: 美国语言: 英语简介: 从“哈珀”太空望远镜中所拍摄到的宇宙图像
    这个源也是我以前从这里找到的,但不知为什么现在没有了。这么好的资料片没人分享实在是可惜了,所以我重新发上来。
    .ac3 是英语解说文件
    .bi.srt 是中英文双字幕文件
    .en.srt 是英文字幕文件
    引用
    General
    Format : AVI
    Format/Info : Audio Video Interleave
    File size : 445 MiB
    Duration : 55mn 57s
    Overall bit rate : 1 111 Kbps
    Writing application : Nandub v1.0rc2
    Writing library : Nandub build 1852/release
    Video
    ID : 0
    Format : MPEG-4 Visual
    Format settings, BVOP : Yes
    Format settings, QPel : No
    Format settings, GMC : 2 warppoints
    Format settings, Matrix : Default (H.263)
    Muxing mode : Packed bitstream
    Codec ID : DX50
    Codec ID/Hint : DivX 5
    Duration : 55mn 57s
    Bit rate : 656 Kbps
    Width : 576 pixels
    Height : 320 pixels
    Display aspect ratio : 16:9
    Frame rate : 23.976 fps
    Resolution : 8 bits
    Scan type : Progressive
    Bits/(Pixel*Frame) : 0.149
    Stream size : 263 MiB (59%)
    Writing library : DivX 5.0.2 (UTC 2002-05-16)
    Audio
    ID : 1
    Format : AC-3
    Format/Info : Audio Coding 3
    Codec ID : 2000
    Duration : 55mn 56s
    Bit rate mode : Constant
    Bit rate : 448 Kbps
    Channel(s) : 6 channels
    Channel positions : Front: L C R, Surround: L R, LFE
    Sampling rate : 48.0 KHz
    Stream size : 179 MiB (40%)
    Alignment : Split accross interleaves
    Interleave, duration : 83 ms (2.00 video frames)
    Interleave, preload duration : 500 ms
  • 《遥望星空:哈勃眼中的宇宙》(Stargaze - Hubble's View Of The Universe)_large