华纳 -《华纳白金经典全套》APE[APE]

华纳 -《华纳白金经典全套》APE[APE]
  • 片  名  华纳 -《华纳白金经典全套》APE[APE]
  • 简  介  地区: 大陆,香港语言: 普通话,粤语
  • 类  别  音乐
  • 小  类  华语音乐


  • 详细介绍专辑中文名: 华纳白金经典全套歌手: 华纳资源格式: APE版本: APE地区: 大陆,香港语言: 普通话,粤语简介:
    专辑介绍:
    华纳群星一人一首怀旧经典
    歌手有郭富城,郑秀文,叶倩文,林子祥,王杰,陈百强,林忆莲,黄子华,胡诺言,杜德伟,Beyond,蔡琴,曾路德,杜丽莎,刘锡明,吕方,李伟崧,太极,杜丽莎,陈迪匡,何婉盈,曾航生,邓健明,苏芮等~
    其中我最喜欢的是王杰的《几分伤心几分痴》,他就是《一场游戏一场梦》的粤语,别有一番味道,令外还有一些很难找的老歌,如陈迪匡的《伤心的小鹦鹉》,个人感觉比现在郑中基的翻唱更有FEEL(这里没有任何贬低郑中基的意思,其实我也挺喜欢他的),特别是现在的电子合成的低成本产品和哪个纯手工打造的伴奏曲跟本不能比哦~慢慢细听就知道Paul一直所批判现在的制作人的马虎是那么的有意义了
  • 华纳 -《华纳白金经典全套》APE[APE]_large

精选评论

楼主还能供源吗?来晚了:-(
在雨林木风论坛中还能找到!
PERFORMER "华纳群星"
TITLE "一人一首怀旧经典"
FILE "华纳.-.[华纳白金经典全套.CD7].专辑.(APE).ape" WAVE
TRACK 01 AUDIO
TITLE "男儿当自强"
PERFORMER "林子祥"
FLAGS DCP
INDEX 01 00:00:00
TRACK 02 AUDIO
TITLE "爱上一个不回家的人"
PERFORMER "林忆莲"
FLAGS DCP
INDEX 00 04:16:63
INDEX 01 04:18:63
TRACK 03 AUDIO
TITLE "只因爱你"
PERFORMER "陈百强"
FLAGS DCP
INDEX 00 09:20:50
INDEX 01 09:22:50
TRACK 04 AUDIO
TITLE "天生喜欢你"
PERFORMER "杜德伟"
FLAGS DCP
INDEX 00 14:18:25
INDEX 01 14:20:25
TRACK 05 AUDIO
TITLE "寻觅"
PERFORMER "叶倩文"
FLAGS DCP
INDEX 00 17:48:38
INDEX 01 17:50:38
TRACK 06 AUDIO
TITLE "一只蚊"
PERFORMER "林子祥"
FLAGS DCP
INDEX 00 22:14:38
INDEX 01 22:16:38
TRACK 07 AUDIO
TITLE "喜欢吗"
PERFORMER "周启生"
FLAGS DCP
INDEX 00 25:21:25
INDEX 01 25:23:25
TRACK 08 AUDIO
TITLE "信自己"
PERFORMER "杜德伟/叶倩文"
FLAGS DCP
INDEX 00 28:49:50
INDEX 01 28:51:50
TRACK 09 AUDIO
TITLE "顶天立地"
PERFORMER "太极"
FLAGS DCP
INDEX 00 33:25:13
INDEX 01 33:27:13
TRACK 10 AUDIO
TITLE "多谢"
PERFORMER "林忆莲"
FLAGS DCP
INDEX 00 37:59:50
INDEX 01 38:01:50
TRACK 11 AUDIO
TITLE "最后一次别离"
PERFORMER "吕方"
FLAGS DCP
INDEX 00 43:32:63
INDEX 01 43:34:63
TRACK 12 AUDIO
TITLE "欠你一世纪"
PERFORMER "蔡立儿"
FLAGS DCP
INDEX 00 48:20:00
INDEX 01 48:22:00
TRACK 13 AUDIO
TITLE "浮云梦"
PERFORMER "曾航生"
FLAGS DCP
INDEX 00 52:15:13
INDEX 01 52:17:13
全套共有几张?
PERFORMER "华纳群星"
TITLE "华纳白金经典_CD7"
FILE "华纳.-.[华纳白金经典全套.CD7].专辑.(APE).ape" WAVE
TRACK 01 AUDIO
TITLE "男儿当自强"
PERFORMER "林子祥"
FLAGS DCP
INDEX 01 00:00:00
TRACK 02 AUDIO
TITLE "爱上一个不回家的人"
PERFORMER "林忆莲"
FLAGS DCP
INDEX 00 04:16:63
INDEX 01 04:18:63
TRACK 03 AUDIO
TITLE "只因爱你"
PERFORMER "陈百强"
FLAGS DCP
INDEX 00 09:20:50
INDEX 01 09:22:50
TRACK 04 AUDIO
TITLE "天生喜欢你"
PERFORMER "杜德伟"
FLAGS DCP
INDEX 00 14:18:25
INDEX 01 14:20:25
TRACK 05 AUDIO
TITLE "寻觅"
PERFORMER "叶倩文"
FLAGS DCP
INDEX 00 17:48:38
INDEX 01 17:50:38
TRACK 06 AUDIO
TITLE "一只蚊"
PERFORMER "林子祥"
FLAGS DCP
INDEX 00 22:14:38
INDEX 01 22:16:38
TRACK 07 AUDIO
TITLE "喜欢吗"
PERFORMER "周启生"
FLAGS DCP
INDEX 00 25:21:25
INDEX 01 25:23:25
TRACK 08 AUDIO
TITLE "信自己"
PERFORMER "杜德伟/叶倩文"
FLAGS DCP
INDEX 00 28:49:50
INDEX 01 28:51:50
TRACK 09 AUDIO
TITLE "顶天立地"
PERFORMER "太极"
FLAGS DCP
INDEX 00 33:25:13
INDEX 01 33:27:13
TRACK 10 AUDIO
TITLE "多谢"
PERFORMER "林忆莲"
FLAGS DCP
INDEX 00 37:59:50
INDEX 01 38:01:50
TRACK 11 AUDIO
TITLE "最后一次别离"
PERFORMER "吕方"
FLAGS DCP
INDEX 00 43:32:63
INDEX 01 43:34:63
TRACK 12 AUDIO
TITLE "欠你一世纪"
PERFORMER "蔡立儿"
FLAGS DCP
INDEX 00 48:20:00
INDEX 01 48:22:00
TRACK 13 AUDIO
TITLE "浮云梦"
PERFORMER "曾航生"
FLAGS DCP
INDEX 00 52:15:13
INDEX 01 52:17:13
REN for XIAN
谢谢楼上的,本来没有注意到你的回复在自己改的,这下可省了好多事了
华纳的精选支持一下!
华纳的精选全收了,谢谢楼主分享。
老大们,可以把种留着吗?
非常全面的概括,优秀的作品总会让人百听不厌,收了