《我的狐仙女友》(Kanokon)[OP Single PHOSPHOR][宫崎羽衣][含Booklet][APE+ISO]

《我的狐仙女友》(Kanokon)[OP Single PHOSPHOR][宫崎羽衣][含Booklet][APE+ISO]
  • 片  名  《我的狐仙女友》(Kanokon)[OP Single PHOSPHOR][宫崎羽衣][含Booklet][APE+ISO]
  • 简  介  对白语言: 日语
  • 类  别  动漫
  • 小  类  动漫周边


  • 详细介绍中文名: 我的狐仙女友英文名: Kanokon别名: かのこん版本: [OP Single PHOSPHOR][宫崎羽衣][含Booklet][APE+ISO]地区: 日本对白语言: 日语简介: 【剧情介绍】
    从乡村来转到薰风高中的转校生小山田耕太,转校的第一天就被学校的第一美少女源ちづる叫了出去,在被表达了深厚的爱意的
    同时也知道了她的秘密。从那一天开始,妖怪与人类的爱情喜剧就此展开
    【专辑介绍】
    かのこん OP - PHOSPHOR/宫崎羽衣商品番号: FVCG-1025
    メディア: CD
    组枚数: 2
    発売日: 2008/04/23
    価格: 1890円(税込)
    【Artist Cast】
    奥井雅美 (作词者) 铃木 Daichi 秀行 (编曲者) 
    宫崎羽衣 (アーティスト) MACARONI☆ (作曲者) 
    「内容」
    ドタバタエロティックラブコメ「かのこん」が待望のアニメ化 オープニングテーマには宫崎羽衣が登场 初回限定盘のDVDには、アニメ『かのこん』オープニングテーマ「PHOSPHOR」プロモーションビデオ (宫崎羽衣出演)収録。
    【收录曲目】
    1、PHOSPHOR
    2、STRATEGY
    3、PHOSPHOR off vocal
    4、STRATEGY off vocal
  • 《我的狐仙女友》(Kanokon)[OP Single PHOSPHOR][宫崎羽衣][含Booklet][APE+ISO]_large

精选评论

请将下面CUE替代原先的CUE
cue:
CATALOG 4560248018251
TITLE "かのこん OP - PHOSPHOR/宮崎羽衣"
FILE "CDImage.APE" WAVE
TRACK 01 AUDIO
TITLE "PHOSPHOR"
PERFORMER "宮崎羽衣"
INDEX 01 00:00:00
TRACK 02 AUDIO
TITLE "STRATEGY"
PERFORMER "宮崎羽衣"
INDEX 00 04:11:22
INDEX 01 04:12:67
TRACK 03 AUDIO
TITLE "PHOSPHOR(off Vocal)"
PERFORMER "奥井雅美"
INDEX 00 07:30:07
INDEX 01 07:32:52
TRACK 04 AUDIO
TITLE "STRATEGY(off Vocal)"
PERFORMER "MACARONI☆"
INDEX 00 11:43:26
INDEX 01 11:44:71
不错,发的好快,支持
發個MP3吧
为什么奥井雅美做的歌又让她唱啊,,aaaa
谢谢,支持无损
感谢LZ~
无损才是王道
没源了 补补!!